Verified torrent Kalakattam (2016) 720p Hindi Dubbed HDRip x264 AC3 by Full4movies


    Seeders : 0      Leechers : 0


Note :

Please Update (Trackers Info) Before Start Torrents Downloading to See Updated Seeders And Leechers for Batter Download Speed.

Trackers List

Tracker NameLast CheckStatusSeedersLeechers




Torrent File Content (1 file)


     Kalakattam (2016) 720p Hindi Dubbed HDRip x264 AC3 by Full4movies.mkv -
1.05 GB



Description



https://extraimage.net/images/2018/08/11/8f13e065258f9448036220edbbffb77f.jpg


General
Complete name : Kalakattam (2016) 720p Hindi Dubbed HDRip x264 AC3 by Full4movies.mkv
Format : Matroska
Format version : Version 4 / Version 2
File size : 1.05 GiB
Duration : 2 h 6 min
Overall bit rate : 1 194 kb/s
Movie name : www.Full4moveis.co
Encoded date : UTC 2018-08-10 07:37:22
Writing application : mkvmerge v8.1.0 ('Psychedelic Postcard') 32bit
Writing library : libebml v1.3.1 + libmatroska v1.4.2
Cover : Yes
Attachments : Covers.jpg

Video
ID : 1
Format : AVC
Format/Info : Advanced Video Codec
Format profile : [email protected]
Format settings, CABAC : Yes
Format settings, RefFrames : 3 frames
Codec ID : V_MPEG4/ISO/AVC
Duration : 2 h 6 min
Bit rate : 1 000 kb/s
Width : 1 280 pixels
Height : 544 pixels
Display aspect ratio : 2.35:1
Frame rate mode : Constant
Frame rate : 24.000 FPS
Color space : YUV
Chroma subsampling : 4:2:0
Bit depth : 8 bits
Scan type : Progressive
Bits/(Pixel*Frame) : 0.060
Stream size : 903 MiB (84%)
Writing library : x264 core 79
Language : Tamil
Default : Yes
Forced : No
Color range : Limited
Color primaries : BT.709
Transfer characteristics : BT.709
Matrix coefficients : BT.709

Audio
ID : 2
Format : AC-3
Format/Info : Audio Coding 3
Mode : Dolby Digital
Format settings, Endianness : Big
Codec ID : A_AC3
Duration : 2 h 6 min
Bit rate mode : Constant
Bit rate : 192 kb/s
Channel(s) : 2 channels
Channel positions : Front: L R
Sampling rate : 48.0 kHz
Frame rate : 31.250 FPS (1536 SPF)
Bit depth : 16 bits
Compression mode : Lossy
Stream size : 173 MiB (16%)
Title : -=!Dr.STAR!=-
Language : Hindi
Service kind : Complete Main
Default : Yes
Forced : No

Screen Shoots
https://extraimage.net/images/2018/08/11/583ee44288b02fc28b18a079a84e66e0.jpg

Related torrents

Torrent NameAddedSizeSeedLeechHealth
Verified torrent
4 months ago - in Movies1.52 GB11
3 months ago - in Movies943.49 MB62
Verified torrent
3 months ago - in Movies797.81 MB85
Verified torrent
4 months ago - in Movies1.48 GB20
Verified torrent
4 months ago - in Movies1.09 GB14
2 months ago - in Movies1.26 GB00

Note :

Feel free to post any comments about this torrent, including links to Subtitle, samples, screenshots, or any other relevant information. Please Dont Download anything from Comments, And Links to Streaming Sites like Watch Online Kalakattam (2016) 720p Hindi Dubbed HDRip x264 AC3 by Full4movies Full Movie, Fmovies, 123Movies, Putlocker, Netflix, etc.

Comments (0 Comments)




Please login or create a FREE account to post comments
Quick Browse
Movies
TV shows
Music
Games
Applications
Anime
Other

Latest Articles

Friends

Latest Searches