Verified torrent 7 Hours to Go Hindi (2016) 720p HDRip x264 AAC by Full4movies


    Seeders : 0      Leechers : 0


Note :

Please Update (Trackers Info) Before Start Torrents Downloading to See Updated Seeders And Leechers for Batter Download Speed.

Trackers List

Tracker NameLast CheckStatusSeedersLeechers




Torrent File Content (1 file)


     7 Hours to Go Hindi (2016) 720p HDRip x264 AAC by Full4movies.mkv -
850.3 MB



Description



https://extraimage.net/images/2018/08/11/20e8efedffe7b3367ec1c8401de6dd6c.jpg


General
Complete name                  : 7 Hours to Go Hindi (2016) 720p HDRip x264 AAC by Full4movies.mkv
Format                         : Matroska
Format version                 : Version 4 / Version 2
File size                      : 850 MiB
Duration                       : 1 h 54 min
Overall bit rate               : 1 042 kb/s
Movie name                     : www.Full4movies.co
Encoded date                   : UTC 2018-08-09 13:14:12
Writing application            : mkvmerge v8.1.0 ('Psychedelic Postcard') 32bit
Writing library                : libebml v1.3.1 + libmatroska v1.4.2

Video
ID                             : 1
Format                         : AVC
Format/Info                    : Advanced Video Codec
Format profile                 : [email protected]
Format settings, CABAC         : Yes
Format settings, RefFrames     : 10 frames
Codec ID                       : V_MPEG4/ISO/AVC
Duration                       : 1 h 54 min
Bit rate                       : 880 kb/s
Width                          : 1 280 pixels
Height                         : 544 pixels
Display aspect ratio           : 2.35:1
Frame rate mode                : Constant
Frame rate                     : 23.976 (24000/1001) FPS
Color space                    : YUV
Chroma subsampling             : 4:2:0
Bit depth                      : 8 bits
Scan type                      : Progressive
Bits/(Pixel*Frame)             : 0.053
Stream size                    : 718 MiB (84%)
Writing library                : x264 core 142 r2479 dd79a61
Language                       : Hindi
Default                        : Yes
Forced                         : No
Color range                    : Limited
Color primaries                : BT.709
Transfer characteristics       : BT.709
Matrix coefficients            : BT.709

Audio
ID                             : 2
Format                         : AAC
Format/Info                    : Advanced Audio Codec
Format profile                 : LC
Codec ID                       : A_AAC
Duration                       : 1 h 54 min
Bit rate                       : 160 kb/s
Channel(s)                     : 2 channels
Channel positions              : Front: L R
Sampling rate                  : 48.0 kHz
Frame rate                     : 46.875 FPS (1024 SPF)
Compression mode               : Lossy
Delay relative to video        : -21 ms
Stream size                    : 130 MiB (15%)
Language                       : Hindi
Default                        : Yes
Forced                         : No

Screen Shoots
https://extraimage.net/images/2018/08/11/79948dd74f2a039e0a155c23c8d9dc59.jpg

Related torrents

Torrent NameAddedSizeSeedLeechHealth
2 months ago - in Movies850.57 MB246
Verified torrent
2 months ago - in Movies809.44 MB00
Verified torrent
2 months ago - in Movies1.09 GB00
Verified torrent
2 months ago - in Movies1.16 GB00
Verified torrent
2 months ago - in Movies1.09 GB00
Verified torrent
3 months ago - in Movies961.66 MB2923

Note :

Feel free to post any comments about this torrent, including links to Subtitle, samples, screenshots, or any other relevant information. Please Dont Download anything from Comments, And Links to Streaming Sites like Watch Online 7 Hours to Go Hindi (2016) 720p HDRip x264 AAC by Full4movies Full Movie, Fmovies, 123Movies, Putlocker, Netflix, etc.

Comments (0 Comments)




Please login or create a FREE account to post comments
Quick Browse
Movies
TV shows
Music
Games
Applications
Anime
Other

Latest Articles

Friends

Latest Searches